2011-04-12 - Prefuse 73 + Zola Jesus - The Misanthrope Meditation Mix

From MixesDB
Jump to: navigation, search

File details

dur MB kbps
0:40:15 92.14 320

Tracklist

  1. Life On Earth Begins In The Sun's Energy - Edward Williams
  2. Charles Dodge - He Destroyed Her Image
  3. Piero Umillani Percussions vs - Jeunesse Problematique
  4. Pril Smiley - Koloyosa
  5. Demdike Stare - Quiet Sky
  6. Otto Luening - Incantaion
  7. Broadcast + The Focus Group - The Song Before
  8. Ingram Marshall - Cortez
  9. Piero Umiliani - Danza Galattica
  10. Giampiero Boneschi - Psycho Analysis Lesson
  11. Phonophani - Nold
  12. Antonio Russolo - Corale
  13. Tim Hecker - Hatred Of Music Ii
  14. Leb Laze - Static Radiates
  15. William Gum-Boot & Lawrence Wiffin - Pathetic
  16. Sam Spence - Moon Shot #27
  17. Bruno Nicolai - Ll Ritratto Di Evelyn
  18. Vaclav Nelhybel - Vibrations In Outer Space
  19. Brainticket - Robotika
  20. Laurie Spiegel - Appalachian Grove I
  21. Aggitation Free - Dialogue+Random
  22. Bruce Hack - Haackula # 9
  23. Alps - Marzipan
  24. Vladimir Ussachevsky - Wireless Fantasy
  25. Telepathe - Alps
  26. Minor Pete - Mordant Music
  27. The Last Outro

Comments

Art
01:02, 19 April 2011 (CEST)
00.00 - Life On Earth Begins In The Sun's Energy - Edward Williams

00.44 - Charles Dodge - He Destroyed Her Image

01.31 - Piero Umilliani Percussions vs - Jeunesse Problematique

02.00 - Pril Smiley - Koloyosa

04.10 - Demdike Stare - Quiet Sky

05.16 - Otto Luening - Incantaion

06.40 - Broadcast + The Focus Group - The Song Before

08.43 - Ingram Marshall - Cortez

09.10 - Piero Umiliani - Danza Galattica

11.07 - Giampiero Boneschi - Psycho Analysis Lesson

11.24 - Phonophani - Nold

14.03 - Antonio Russolo - Corale

15.08 - Tim Hecker - Hatred Of Music Ii

17.22 - Leb Laze - Static Radiates

19.33 - William Gum-Boot & Lawrence Wiffin - Pathetic

21.27 - Sam Spence - Moon Shot #27

21.54 - Bruno Nicolai - Ll Ritratto Di Evelyn

23.35 - Vaclav Nelhybel - Vibrations In Outer Space

24.22 - Brainticket - Robotika

26.24 - Laurie Spiegel - Appalachian Grove I

27.58 - Aggitation Free - Dialogue+Random

28.34 - Bruce Hack - Haackula # 9

28.48 - Alps - Marzipan

29.37 - Vladimir Ussachevsky - Wireless Fantasy

30.15 - Alps - Telepathe

34.04 - Minor Pete - Mordant Music

36.49 -The Last Outro

05:13, 19 April 2011 (CEST)
corected cue list, the old comment can be deleted

TITLE "The Misanthrope Mediation"

FILE "Prefuse 73 Zola Jesus Mix Pt 1.The Misanthrope Mediation.mp3" WAVE

TRACK 01 AUDIO

TITLE "Life On Earth Begins In The Sun's Energy"

PERFORMER "Edward Williams"

INDEX 01 00:00:00

TRACK 02 AUDIO

TITLE "He Destroyed Her Image"

PERFORMER "Charles Dodge"

INDEX 01 00:45:61

TRACK 03 AUDIO

TITLE "Percussions vs - Jeunesse Problematique"

PERFORMER "Piero Umiliani"

INDEX 01 01:32:12

TRACK 04 AUDIO

TITLE "Koloyosa"

PERFORMER "Pril Smiley"

INDEX 01 02:00:35

TRACK 05 AUDIO

TITLE "Quiet Sky"

PERFORMER "Demdike Stare"

INDEX 01 04:09:58

TRACK 06 AUDIO

TITLE "Incantaion"

PERFORMER "Otto Luening"

INDEX 01 05:16:29

TRACK 07 AUDIO

TITLE "The Song Before"

PERFORMER "Edward Williams"

INDEX 01 06:40:30

TRACK 08 AUDIO

TITLE "Cortez"

PERFORMER "Ingram Marshall"

INDEX 01 08:34:53

TRACK 09 AUDIO

TITLE "Danza Galattica"

PERFORMER "Piero Umiliani"

INDEX 01 09:08:62

TRACK 10 AUDIO

TITLE "Psycho Analysis Lesson"

PERFORMER "Giampiero Boneschi"

INDEX 01 11:11:18

TRACK 11 AUDIO

TITLE "Nold"

PERFORMER "Phonophani "

INDEX 01 11:25:06

TRACK 12 AUDIO

TITLE "Corale"

PERFORMER "Antonio Russolo"

INDEX 01 14:02:06

TRACK 13 AUDIO

TITLE "Hatred Of Music II"

PERFORMER "Tim Hecker"

INDEX 01 15:08:48

TRACK 14 AUDIO

TITLE "Static Radiates"

PERFORMER "Leb Laze"

INDEX 01 17:22:33

TRACK 15 AUDIO

TITLE "Pathetic"

PERFORMER "William Gum-Boot & Lawrence"

INDEX 01 19:34:19

TRACK 16 AUDIO

TITLE "Moon Shot #27"

PERFORMER "Sam Spence"

INDEX 01 21:27:35

TRACK 17 AUDIO

TITLE "Il Ritratto Di Evelyn"

PERFORMER "Bruno Nicolai"

INDEX 01 21:54:08

TRACK 18 AUDIO

TITLE "Vibrations In Outer Space"

PERFORMER "Vaclav Nelhybel"

INDEX 01 23:36:19

TRACK 19 AUDIO

TITLE "Robotika"

PERFORMER "Brainticket "

INDEX 01 24:22:29

TRACK 20 AUDIO

TITLE "Appalachian Grove I"

PERFORMER "Laurie Spiegel"

INDEX 01 26:24:16

TRACK 21 AUDIO

TITLE "Dialogue+Random"

PERFORMER "Aggitation Free"

INDEX 01 27:58:35

TRACK 22 AUDIO

TITLE "Haackula # 9"

PERFORMER "Bruce Hack"

INDEX 01 28:32:36

TRACK 23 AUDIO

TITLE "Marzipan"

PERFORMER "Alps"

INDEX 01 28:48:66

TRACK 24 AUDIO

TITLE "Wireless Fantasy"

PERFORMER "Vladimir Ussachevsky"

INDEX 01 29:37:35

TRACK 25 AUDIO

TITLE "Telepathe"

PERFORMER "Alps"

INDEX 01 30:15:54

TRACK 26 AUDIO

TITLE "Minor Pete"

PERFORMER "Mordant Music"

INDEX 01 34:04:14

TRACK 27 AUDIO

TITLE "The Last Outro"

PERFORMER "Prefuse 73 Zola Jesus"

INDEX 01 35:53:52